#TITLE:Reason;
#SUBTITLE:;
#ARTIST:玉置成实;
#TITLETRANSLIT:;
#SUBTITLETRANSLIT:;
#ARTISTTRANSLIT:;
#CREDIT:;
#BANNER:reason_logo.jpg;
#BACKGROUND:reason_bg.jpg;
#LYRICSPATH:;
#CDTITLE:Lan.png;
#MUSIC:Reason.mp3;
#OFFSET:-0.020;
#SAMPLESTART:100.000;
#SAMPLELENGTH:12.000;
#SELECTABLE:YES;
#BPMS:0.000=130.000;
#STOPS:;
#BGCHANGES:;
// cache tags:
#FIRSTBEAT:2.500;
#LASTBEAT:278.750;
#SONGFILENAME:Songs/sdo pack 6/Reason/Reason.sm;
#HASMUSIC:1;
#HASBANNER:1;
#MUSICLENGTH:132.875;
// end cache tags

//---------------dance-single - sky----------------
#NOTES:
     dance-single:
     sky:
     Hard:
     9:
     0.603,0.682,1.000,0.075,0.591,401.000,150.000,10.000,0.000,3.000:

0000
0000
0000
0000
0000
1000
0100
0010
,
0000
1000
0100
0010
0000
0000
0010
0000
,
1000
0000
0000
0000
0010
0000
0100
0010
0000
0000
0000
0000
0000
0000
0100
0000
,
0010
0001
0000
0100
0000
1000
0100
0010
,
0001
0020
0000
0000
0000
0000
0000
0000
0000
0000
0000
0030
1000
0000
0100
0000
,
0010
0000
0100
0020
0000
0000
0000
0000
0000
0000
0000
0030
0000
0000
0001
0000
,
0010
0000
0100
0000
0010
0200
0000
0000
0000
0000
0000
0000
0000
0300
0000
0000
,
0010
0000
0100
0000
0001
0000
0010
0100
0000
0000
0000
0000
0000
0000
0010
0000
,
0001
0010
0100
1000
0000
0100
0000
0000
,
0010
0000
0020
0000
1000
1000
0000
0000
1000
0000
1000
0000
1000
0100
1000
0000
,
1000
0000
1000
0100
0000
0100
1000
0000
0100
0000
1000
0000
1100
0000
0000
0000
,
1130
0000
0000
0000
0010
0100
0000
0000
0100
0010
0000
0000
1000
0000
0000
0000
0100
0000
0000
0000
0100
0000
0000
0000
1010
0000
0000
0000
0000
0000
0000
0000
,
0110
0000
0000
0000
0010
0100
0000
1000
0001
0000
0000
0000
0100
0000
0000
0000
0001
0000
0000
0000
1010
0000
0000
0000
1010
0000
0000
0000
0000
0000
0000
0000
,
0101
0000
0000
0000
0001
0010
0000
1000
0100
0000
0000
0000
0001
0000
0000
0000
0010
0000
0000
0000
1000
0000
0000
0000
0101
0000
0000
0000
0000
0000
0000
0000
,
0011
0110
1010
0110
,
1010
0110
1100
0011
,
0110
0000
1001
0000
0011
0011
0011
0000
,
1100
0110
1001
0110
,
0101
1010
0110
1000
,
0110
0001
1010
0100
,
0011
0100
0110
1000
,
0101
0001
1010
0100
,
0110
0000
1100
0010
1010
0000
0100
0000
,
0101
1000
0110
0001
,
1100
0000
0011
0100
1100
0010
0010
0000
,
0011
1000
0110
0010
,
0011
0000
1000
0000
0110
0110
1000
0000
,
0101
1000
0110
0001
,
1010
0000
0110
0000
1100
0001
0100
0000
,
0011
1000
0110
0001
,
1010
0000
0101
0010
1100
0001
0010
0000
,
0101
1000
1100
0010
,
0101
1000
1100
0010
,
0101
0000
0010
0000
1100
0000
0110
0010
,
0101
0000
1000
0000
0110
0010
0110
0000
,
1001
0100
1100
0001
,
0110
0000
0000
0000
0000
0000
0000
0000
0010
0000
0000
0000
0000
0000
0000
0000
0101
0000
0000
0000
0010
1000
0001
1000
0110
0000
0000
0000
0000
0000
0000
0000
,
0011
0100
1010
0100
,
0011
0000
0000
0000
0000
0000
0000
0000
0100
0000
0000
0000
0000
0000
0000
0000
0110
0000
0000
0000
1000
0001
0010
1000
0101
0000
0000
0000
0000
0000
0000
0000
,
0011
0100
1001
0010
,
0110
0000
0000
0000
0000
0000
0000
0000
1000
0000
0000
0000
0000
0000
0000
0000
0110
0000
0000
0000
1000
0010
0001
0100
1010
0000
0000
0000
0000
0000
0000
0000
,
1010
0000
0000
0000
0100
0000
0000
0000
0110
0000
0000
0000
1100
0000
0000
1100
,
0000
0001
0001
0000
2200
0000
0011
3300
,
0000
0011
0000
0000
0100
0000
0000
0110
0000
0000
0001
0000
0000
1010
0000
0000
0100
0000
0000
1100
0000
0000
0001
0000
,
0000
0110
0000
0000
0100
0000
0000
1010
0000
0000
0100
0000
0000
0011
0000
0000
0011
0000
0000
1100
0000
0000
0010
0000
,
0000
0101
0000
0000
0010
0000
0000
1100
0000
0000
0010
0000
0000
0110
0000
0000
0001
0000
0000
1100
0000
0000
0010
0000
,
0000
0101
0000
0000
1000
0000
0000
0110
0000
0000
0001
0000
0000
1010
0000
0000
1010
0000
0000
1010
0000
0000
0001
0000
,
0000
0110
0000
0000
0010
0000
0000
1100
0000
0000
0001
0000
0000
0110
0000
0000
1000
0000
0000
0101
0000
0000
0010
0000
,
0000
1100
0000
0000
0001
0000
0000
0110
0000
0000
0001
0000
0000
1010
0000
0000
1010
0000
0000
0011
0000
0000
0100
0000
,
0000
1010
0000
0000
0100
0000
0000
0110
0000
0000
0001
0000
0000
1010
0000
0000
0100
0000
0000
1010
0000
0000
0001
0000
,
0000
0110
0000
0000
1000
0000
0000
0011
0000
0000
0100
0000
0000
1100
0000
0000
0010
0000
0000
0110
0000
0000
0001
0000
,
0000
1010
0000
0000
0100
0000
0000
0011
0000
0000
0010
0000
0000
0110
0000
0000
1000
0000
0000
0011
0000
0000
0100
0000
,
0000
1100
0000
0000
0010
0000
0000
0101
0000
0000
0010
0000
0000
1001
0000
0000
1001
0000
0000
0110
0000
0000
0001
0000
,
0000
1010
0000
0000
0100
0000
0000
1100
0000
0000
0010
0000
0000
0101
0000
0000
0010
0000
0000
1100
0000
0000
0010
0000
,
0000
0110
0000
0000
1000
0000
0000
0110
0000
0000
0001
0000
0000
0011
0000
0000
0011
0000
0000
0110
0000
0000
0001
0000
,
0000
0000
1010
0000
0000
0000
0000
0000
0001
0000
0000
0000
0000
0000
0110
0000
0000
0000
0000
0000
0010
0000
0000
0000
0000
0000
1010
0000
0000
0000
0000
0000
0010
0000
0000
0000
0000
0000
0101
0000
0000
0000
0000
0000
1000
0000
0000
0001
,
0000
0000
0100
0000
0000
0011
0000
0000
0010
0000
0000
1001
0000
0000
0010
0000
0000
0101
0000
0000
0010
0000
0000
1001
0000
0000
0010
0000
0000
0101
0000
0000
0010
0000
0000
0001
0000
0000
2000
0000
0000
0000
0000
0000
0000
0000
0000
0000
,
0000
0000
0000
0000
0000
0000
0000
0100
0000
0000
0000
0000
0000
0000
0000
0000
0000
0000
0000
0100
0000
0000
0000
0000
,
0000
3020
0000
0000
0000
0000
0000
0001
0000
0000
0000
0000
0000
0000
0000
0000
0000
0000
0000
0000
0000
0000
0000
0000
,
0000
0000
0000
0000
,
0000
0030
0000
0000
0000
0000
0000
0000
0000
0000
0000
0000
0000
0000
0000
0000
0000
0000
0100
0000
0000
0010
0000
0000
,
0001
0000
0000
0000
0000
0010
0000
0100
0000
1000
0000
0000
0000
0000
1000
0000
,
0000
0000
0100
0000
0000
0000
0000
1000
0000
0100
0000
0010
0000
0000
0000
0000
,
0100
0010
0001
0000
0001
0000
0100
1000
,
0100
0000
0010
0000
0000
0002
0010
0000
0100
0000
1000
0000
0100
0000
0010
0000
,
0103
0010
0001
0010
0100
1000
0100
0001
,
0010
0001
0100
1000
0010
0100
1000
0010
,
0100
0001
0000
0100
0010
0001
1000
0100
,
0010
0000
0000
0000
0001
0000
0000
0010
0000
0000
0100
0000
1000
0000
0000
0200
,
0000
0000
0000
0000
0000
0000
0000
0000
0000
0000
0000
0310
0000
0000
0000
0000
;

//---------------dance-single - ----------------
#NOTES:
     dance-single:
     :
     Medium:
     1:
     0.758,0.890,0.692,0.226,1.000,582.000,92.000,30.000,0.000,1.000:  // measure 1
0000
0000
0000
0000
0000
0000
0000
0000
0000
0000
0000
0000
0100
0100
0000
1000
,  // measure 2
0000
0000
0010
0010
0000
0100
0001
0000
0000
0100
0000
0010
0000
0000
1000
0000
,  // measure 3
0010
0000
0100
0000
0010
0100
0000
0001
1000
0000
0000
0000
0010
0000
0010
0100
,  // measure 4
0000
0001
0000
1000
0000
0000
0010
0000
0000
0000
0100
0010
0000
0000
1000
0010
,  // measure 5
0000
0100
0002
0000
0000
0000
0000
0000
0000
0000
0003
0100
0010
0000
1000
0000
,  // measure 6
0100
0010
0000
0100
0000
0020
0000
0000
0000
0000
0000
0000
0130
1000
0100
0010
,  // measure 7
0000
0010
0000
0100
0010
0100
0000
0002
0000
0000
0000
0000
0000
0000
0103
1000
,  // measure 8
0100
0010
0010
0000
0100
0010
0000
0000
2000
0000
0000
0000
0000
3000
0010
0010
,  // measure 9
0000
0100
0002
0000
0010
0003
0000
0100
1000
0000
0100
0020
0000
0000
0000
0000
,  // measure 10
0000
0030
0100
0000
2000
0000
0000
0000
0000
0000
0000
0000
0000
0000
0000
0000
,  // measure 11
0000
0000
0000
0000
0000
0000
0000
3010
,  // measure 12
0010
0000
0000
0100
0001
0000
0001
0000
0100
0010
0000
1000
0000
0010
0010
0100
,  // measure 13
0000
0001
0000
0001
0100
0010
0010
0000
1000
0100
0010
0000
0010
0100
0001
0001
,  // measure 14
0000
0100
0010
0010
0000
1000
0100
0010
0010
0100
0000
0001
0000
0010
0000
0100
,  // measure 15
0010
0000
0010
0000
0000
0001
0100
0110
0000
0010
0000
1000
0000
0010
0000
0101
,  // measure 16
0000
0101
0000
0010
0000
0001
0000
0000
0000
0010
0100
0010
0010
0000
0100
0000
,  // measure 17
0010
0000
0001
0000
1000
0001
0000
0110
0000
0010
0100
0001
0002
0000
0000
0000
,  // measure 18
0003
0100
0010
0010
0100
1000
0100
0000
0010
0000
0010
0100
0000
0002
0000
0000
,  // measure 19
0000
0010
0003
0010
0100
1100
0000
0010
0000
0010
0000
0100
0001
0000
0100
0010
,  // measure 20
0000
0001
1000
0000
0010
0100
0010
0001
0010
0100
0000
1100
0010
0001
0010
0001
,  // measure 21
0010
0100
0010
0000
0110
1000
0100
0010
0000
0010
0110
0000
0001
0010
0100
1000
,  // measure 22
0100
0010
0010
0100
0010
0001
0010
0100
1000
0110
0000
0010
0010
0001
0010
0100
,  // measure 23
0000
0110
0010
0100
0010
1000
0100
0010
0010
0100
0010
0100
0001
0010
0100
0000
,  // measure 24
1100
0010
0000
0010
0100
0010
0001
0010
0100
1000
0100
0010
0010
0000
0101
0010
,  // measure 25
0011
0100
0000
1100
0010
0010
0000
0100
0001
0010
0000
1101
0100
0010
0000
0110
,  // measure 26
0000
0010
0100
1100
0020
0000
0000
0000
0000
0000
0000
0000
0000
0000
0000
0000
,  // measure 27
0000
0100
0000
0000
0100
0000
0000
0100
0000
0100
0030
0001
0000
1000
0110
0010
,  // measure 28
0000
0001
0010
0100
0010
0110
0000
0010
0100
0000
0110
0000
0010
0101
0010
0100
,  // measure 29
1000
0110
0000
0010
0100
0010
0110
0000
0001
0100
0001
0000
1100
0010
0000
0110
,  // measure 30
0001
0000
0010
0000
0110
0000
0011
0100
1000
0100
0010
0010
0000
0011
0000
0100
,  // measure 31
0000
0110
0000
0010
0001
0000
0010
0100
0010
0000
0010
0110
0000
1000
0100
0001
,  // measure 32
0010
0011
0000
0100
0010
0000
0010
0100
1000
0110
0000
0010
0001
0010
0000
0100
,  // measure 33
0010
0010
0100
0001
0000
0010
0100
1000
0100
0010
0010
0000
0001
0010
0000
0100
,  // measure 34
0000
0010
0020
0000
0000
0000
0000
0000
0000
0000
0000
0000
0000
0000
1000
0000
,  // measure 35
0000
1000
0000
1000
0000
0000
1000
0000
0100
0030
0100
0010
0100
0001
0000
0100
,  // measure 36
0010
0000
0000
0100
0000
2000
0100
0000
0200
3000
0300
0010
0010
0000
0100
0000
,  // measure 37
0002
0000
0000
0010
0003
0200
0000
0000
0000
0000
0310
0010
0001
0010
0000
2000
,  // measure 38
0000
0000
3010
0000
0010
0200
0000
0000
0010
0300
0000
0002
0000
0000
0000
0000
,  // measure 39
0000
0003
0100
0000
0100
1000
0000
0020
0000
0000
0030
0100
0000
0100
0010
0001
,  // measure 40
0010
0000
1100
0100
0000
0020
0000
0000
0000
0000
0030
0100
1000
0100
0010
0010
,  // measure 41
0000
0010
0000
0002
0000
0000
0000
0103
0010
0000
0010
0100
1000
0200
0000
0000
,  // measure 42
0000
0000
0000
0000
0000
0000
0000
0000
0000
0000
0000
0000
0300
0010
0000
0010
,  // measure 43
0000
0000
0010
0000
0000
0010
0000
0000
0000
0001
0100
0110
0000
1001
0000
0110
,  // measure 44
0000
1001
0000
0110
0100
0001
0000
0110
0000
1001
0000
0110
0000
1001
0000
0110
,  // measure 45
0000
0101
0000
1010
0000
0101
0000
0110
0000
1001
0000
0110
0000
0101
0000
0110
,  // measure 46
0000
1001
0000
0110
0000
0101
0000
0110
0000
1001
0000
0110
0000
0101
0000
0101
,  // measure 47
0000
0101
0000
1010
0000
1001
0000
1001
0000
0110
0000
0101
0100
0001
1010
0000
,  // measure 48
1001
0000
0110
0000
0100
0001
0101
0000
0000
1010
1001
0000
0110
0000
0101
0000
,  // measure 49
0101
0000
1000
0010
0000
1001
0010
0100
0000
0101
1010
0000
0002
0100
0000
0000
,  // measure 50
0000
0000
0003
0010
0010
0100
1000
0100
0010
0000
0010
0000
0100
0020
0000
0000
,  // measure 51
0000
0000
0000
0130
0000
0100
0100
0020
0000
0000
0000
0030
0000
0001
0100
0010
,  // measure 52
1000
0001
0100
0010
0100
0001
1000
0010
0100
0001
0100
0010
0000
1001
0000
0110
,  // measure 53
0000
0101
0000
1010
0000
0101
0100
0010
1000
0001
0100
0010
0100
0001
1000
0010
,  // measure 54
0100
0001
0100
0010
1000
0000
0001
0110
0100
0001
1000
0010
0000
0101
0000
0110
,  // measure 55
0000
0100
0110
0000
0001
1001
0000
0010
0100
0010
0100
0001
1000
0001
0000
0100
,  // measure 56
0010
0100
0010
0100
0001
1000
0010
0100
0001
0100
0010
0100
0011
0000
1001
0000
,  // measure 57
0100
0011
0100
0010
1001
0000
0100
0010
0100
0010
0100
0010
0000
1002
0000
0000
,  // measure 58
0000
0000
0000
0000
0000
0013
0100
1000
0100
0000
0010
0010
0000
0000
0200
0000
,  // measure 59
0000
0000
0000
0310
0010
0000
1000
0000
0200
0000
0000
0000
0000
0000
0000
0000
,  // measure 60
0000
0000
0000
0000
0000
0000
0000
0300
,  // measure 61
0000
0000
0000
0000
0000
0000
0000
0010
,  // measure 62
0000
0100
0000
0000
0000
0010
0000
1000
0000
0000
0001
0000
0000
0000
0100
0000
,  // measure 63
0000
0000
0010
0000
0000
0000
1000
0000
0001
0000
0000
0100
0000
0000
0000
0010
,  // measure 64
0000
0000
1000
0000
0001
0000
0000
0000
0100
0000
0000
0000
0010
0000
0000
1000
,  // measure 65
0000
0010
0000
0000
0100
0000
0001
0000
0100
0000
0010
0000
0000
1000
0000
0010
,  // measure 66
0000
0100
0001
0000
0000
0100
0000
0010
0000
1000
0000
0000
0010
0000
0100
0000
,  // measure 67
0001
0000
0100
0000
0000
0010
0000
1000
0000
0010
0000
0000
0100
0000
0001
0000
,  // measure 68
0100
0000
0010
0000
0100
0000
0000
0010
0000
0000
2000
0000
0000
0000
3000
0010
,  // measure 69
0000
0010
0000
0000
0100
0000
0010
0000
0000
0100
0000
0001
0000
0000
2000
0000
,  // measure 70
0000
0000
0000
0000
3000
0000
0000
0000
0000
0010
0000
0000
0000
0000
0000
0000
;
